ŸՓ

 һܴa
 ע(Ƭ)
12һ
б l
鿴: 1223|؏: 26
ӡ һ} һ}

乒乓球队员 : [ʺc]2019.2160p.UHD.BluRay.X265.10bit.HDR.TrueHD.7.1-WhiteRhino 13.9GB

[朽]
Dָnj
1#
l 2020-3-2 20:06:57 | ֻԓ |g[ |xģʽ
4K


gʺc / c˹ķ
ƬQueen & Slim
ꡡ2019
aءô /
e
ZԡӢZ
ӳڡ2019-11-27()
IMDbu 7.0/10 from 8192 users
IMDb朽 https://www.imdb.com/title/tt8722346
򶹰u֡6.9/10 from 996 users
4KӰd  //www.4ktt.com
ƬL132
򌧡ݡ÷ȡRK˹ Melina Matsoukas
򾎡ȡS Lena Waithe / ղķ˹ James Frey
ݡϡؼ{-ʷ˹ Jodie Turner-Smith
᠖R Daniel Kaluuya
ًIĦ Indya Moore
塤S Chlo? Sevigny
ķ° Bokeem Woodbine
Flea
˹ؼɭ Sturgill Simpson
СR˹ Benito Martinez
Zϰ塤˹D Jahi Di'Allo Winston
Rء˹ Gralen Bryant Banks
÷mݡ Melanie Halfkenny
PPf˹ Karen Kaia Livers
_ءֿˡm̵ Robert Walker Branchaud
ϡς Andy Dylan
R_WR Soledad O'Brien
w Gayle King
_ķ˹ Roman Armstrong
Z˹͡Zľʲ Justin Carmouche

򺆡
᠖R(ӳ^悡ڱ)ݭhƬʺcӡ(Queen & Slim)Ѷn20191127ձӳ1_ԓƬһsĄƬvһŮʺ󡱺͡ӡһμs_܇֮ͣİlչӳ^悡ͲһˣҷlS]һϣ@̽Ůǻʺx݆TӋ
o󎟡^̖ҡȡS˹ġo󎟡ݴnMelina Matsoukaš@ҲǺ״ΌӰǻڡfƬhղķ˹׌һ愡MиľӰ˾MakereadyעY


@r
72ݹ(2020)
ˌݪ() ÷ȡRK˹

22bOӋ(2020)
FӰѷbOӋ() Shiona Turini

91uՓf(2019)
ь̎Ů ÷ȡRK˹

23ھӰu˅f(2020)
Œ() ÷ȡRK˹
Video
ID : 1
Format : HEVC
Format/Info : High Efficiency Video Coding
Format profile : Main [email protected]@High
HDR format : SMPTE ST 2086, HDR10 compatible
Codec ID : V_MPEGH/ISO/HEVC
Duration : 2 h 12 min
Bit rate : 10.9 Mb/s
Width : 3 840 pixels
Height : 1 608 pixels
Display aspect ratio : 2.40:1
Frame rate mode : Constant
Frame rate : 23.976 (24000/1001) FPS
Color space : YUV
Chroma subsampling : 4:2:0 (Type 2)
Bit depth : 10 bits
Bits/(Pixel*Frame) : 0.073
Stream size : 10.0 GiB (72%)
Writing library : x265 3.3gbe2d82093:[Windows][GCC 10.0.1][64 bit] 10bit
Encoding settings : cpuid=1111039 / frame-threads=5 / numa-pools=36 / wpp / no-pmode / no-pme / no-psnr / no-ssim / log-level=2 / input-csp=1 / input-res=3840x1608 / interlace=0 / total-frames=190445 / level-idc=51 / high-tier=1 / uhd-bd=0 / ref=4 / no-allow-non-conformance / repeat-headers / annexb / aud / hrd / info / hash=0 / no-temporal-layers / no-open-gop / min-keyint=1 / keyint=24 / gop-lookahead=0 / bframes=4 / b-adapt=2 / b-pyramid / bframe-bias=0 / rc-lookahead=25 / lookahead-slices=4 / scenecut=40 / hist-scenecut=0 / radl=0 / no-splice / no-intra-refresh / ctu=64 / min-cu-size=8 / rect / no-amp / max-tu-size=32 / tu-inter-depth=1 / tu-intra-depth=1 / limit-tu=0 / rdoq-level=2 / dynamic-rd=0.00 / no-ssim-rd / signhide / no-tskip / nr-intra=0 / nr-inter=0 / no-constrained-intra / no-strong-intra-smoothing / max-merge=3 / limit-refs=3 / limit-modes / me=3 / subme=3 / merange=57 / temporal-mvp / no-frame-dup / no-hme / weightp / no-weightb / no-analyze-src-pics / deblock=-3:-3 / no-sao / no-sao-non-deblock / rd=4 / selective-sao=0 / no-early-skip / rskip / no-fast-intra / no-tskip-fast / no-cu-lossless / no-b-intra / no-splitrd-skip / rdpenalty=0 / psy-rd=2.00 / psy-rdoq=1.00 / no-rd-refine / no-lossless / cbqpoffs=0 / crqpoffs=0 / rc=crf / crf=17.0 / qcomp=0.60 / qpstep=4 / stats-write=0 / stats-read=0 / vbv-maxrate=160000 / vbv-bufsize=160000 / vbv-init=0.9 / crf-max=0.0 / crf-min=0.0 / ipratio=1.40 / pbratio=1.30 / aq-mode=2 / aq-strength=1.00 / cutree / zone-count=0 / no-strict-cbr / qg-size=32 / no-rc-grain / qpmax=69 / qpmin=0 / no-const-vbv / sar=1 / overscan=0 / videoformat=5 / range=0 / colorprim=9 / transfer=16 / colormatrix=9 / chromaloc=1 / chromaloc-top=2 / chromaloc-bottom=2 / display-window=0 / master-display=G(13250,34500)B(7500,3000)R(34000,16000)WP(15635,16450)L(10000000,50) / cll=614,67 / min-luma=0 / max-luma=1023 / log2-max-poc-lsb=8 / vui-timing-info / vui-hrd-info / slices=1 / no-opt-qp-pps / no-opt-ref-list-length-pps / no-multi-pass-opt-rps / scenecut-bias=0.05 / hist-threshold=0.01 / no-opt-cu-delta-qp / no-aq-motion / hdr10 / hdr10-opt / no-dhdr10-opt / no-idr-recovery-sei / analysis-reuse-level=0 / analysis-save-reuse-level=0 / analysis-load-reuse-level=0 / scale-factor=0 / refine-intra=0 / refine-inter=0 / refine-mv=1 / refine-ctu-distortion=0 / no-limit-sao / ctu-info=0 / no-lowpass-dct / refine-analysis-type=0 / copy-pic=1 / max-ausize-factor=1.0 / no-dynamic-refine / no-single-sei / no-hevc-aq / no-svt / no-field / qp-adaptation-range=1.00 / no-scenecut-aware-qpconformance-window-offsets / right=0 / bottom=0
Default : Yes
Forced : No
Color range : Limited
Color primaries : BT.2020
Transfer characteristics : PQ
Matrix coefficients : BT.2020 non-constant
Mastering display color primaries : Display P3
Mastering display luminance : min: 0.0050 cd/m2, max: 1000 cd/m2
Maximum Content Light Level : 614 cd/m2
Maximum Frame-Average Light Level : 67 cd/m2

Audio #1
ID : 2
Format : MLP FBA 16-ch
Format/Info : Meridian Lossless Packing FBA with 16-channel presentation
Commercial name : Dolby TrueHD with Dolby Atmos
Codec ID : A_TRUEHD
Duration : 2 h 12 min
Bit rate mode : Variable
Bit rate : 3 466 kb/s
Maximum bit rate : 6 375 kb/s
Channel(s) : 8 channels
Channel layout : L R C LFE Ls Rs Lb Rb
Sampling rate : 48.0 kHz
Frame rate : 1 200.000 FPS (40 SPF)
Compression mode : Lossless
Stream size : 3.21 GiB (23%)
Language : English
Default : Yes
Forced : No
Number of dynamic objects : 11
Bed channel count : 1 channel
Bed channel configuration : LFE

Audio #2
ID : 3
Format : AC-3
Format/Info : Audio Coding 3
Commercial name : Dolby Digital
Codec ID : A_AC3
Duration : 2 h 12 min
Bit rate mode : Constant
Bit rate : 448 kb/s
Channel(s) : 6 channels
Channel layout : L R C LFE Ls Rs
Sampling rate : 48.0 kHz
Frame rate : 31.250 FPS (1536 SPF)
Compression mode : Lossy
Stream size : 424 MiB (3%)
Language : English
Service kind : Complete Main
Default : No
Forced : No

Audio #3
ID : 4
Format : AC-3
Format/Info : Audio Coding 3
Commercial name : Dolby Digital
Codec ID : A_AC3
Duration : 2 h 12 min
Bit rate mode : Constant
Bit rate : 192 kb/s
Channel(s) : 2 channels
Channel layout : L R
Sampling rate : 48.0 kHz
Frame rate : 31.250 FPS (1536 SPF)
Compression mode : Lossy
Stream size : 182 MiB (1%)
Title : Commentary with director producer Melina Matsoukas and writer prroducer Lena Waithe
Language : English
Service kind : Complete Main
Default : No
Forced : No

Text #1
ID : 5
Format : PGS
Muxing mode : zlib
Codec ID : S_HDMV/PGS
Codec ID/Info : Picture based subtitle format used on BDs/HD-DVDs
Duration : 2 h 10 min
Bit rate : 40.0 kb/s
Count of elements : 3660
Stream size : 37.4 MiB (0%)
Language : English
Default : No
Forced : No

Text #2
ID : 6
Format : PGS
Muxing mode : zlib
Codec ID : S_HDMV/PGS
Codec ID/Info : Picture based subtitle format used on BDs/HD-DVDs
Duration : 2 h 11 min
Bit rate : 27.3 kb/s
Count of elements : 2790
Stream size : 25.6 MiB (0%)
Language : Spanish
Default : No
Forced : No

Text #3
ID : 7
Format : PGS
Muxing mode : zlib
Codec ID : S_HDMV/PGS
Codec ID/Info : Picture based subtitle format used on BDs/HD-DVDs
Duration : 2 h 6 min
Bit rate : 272 b/s
Count of elements : 26
Stream size : 253 KiB (0%)
Language : Spanish
Default : No
Forced : No

Menu
00:00:00.000 : en:Chapter 01
00:05:46.763 : en:Chapter 02
00:14:20.109 : en:Chapter 03
00:18:58.637 : en:Chapter 04
00:24:56.662 : en:Chapter 05
00:31:21.880 : en:Chapter 06
00:36:06.039 : en:Chapter 07
00:41:30.822 : en:Chapter 08
00:50:09.924 : en:Chapter 09
00:58:42.102 : en:Chapter 10
01:05:56.703 : en:Chapter 11
01:11:14.520 : en:Chapter 12
01:16:44.725 : en:Chapter 13
01:23:59.826 : en:Chapter 14
01:28:45.612 : en:Chapter 15
01:34:28.830 : en:Chapter 16
01:42:10.291 : en:Chapter 17
01:50:00.469 : en:Chapter 18
01:56:02.247 : en:Chapter 19
02:04:41.140 : en:Chapter 20




οҪ鿴[؃Ո؏oV؏dӰҕՈ_ͨVIPVIPT


ղղ
ŸӰҕՓnbaйԱ www.tmeei.com Ӱ,{Ӱ,Ӱ,Ӱ,Ӱҕۇ,Ӱҕ
؏

nbaйԱ www.tmeei.com ʹõ e

2#
l 2020-3-2 21:03:35 | ֻԓ
̫I***UŸӰҕ^Ӱۺõ





......
ŸӰҕՓnbaйԱ www.tmeei.com Ӱ,{Ӱ,Ӱ,Ӱ,Ӱҕۇ,Ӱҕ
3#
l 2020-3-2 21:57:37 | ֻԓ
xx
ŸӰҕՓnbaйԱ www.tmeei.com Ӱ,{Ӱ,Ӱ,Ӱ,Ӱҕۇ,Ӱҕ
4#
l 2020-3-2 22:57:04 | ֻԓ
˺þ xx
ŸӰҕՓnbaйԱ www.tmeei.com Ӱ,{Ӱ,Ӱ,Ӱ,Ӱҕۇ,Ӱҕ
5#
l 2020-3-2 23:35:17 | ֻԓ
U Ů w w w . 9 b f . m e
ŸӰҕՓnbaйԱ www.tmeei.com Ӱ,{Ӱ,Ӱ,Ӱ,Ӱҕۇ,Ӱҕ
6#
l 2020-3-3 00:23:57 | ֻԓ

Ȼ\\]ҾyĿӰŸӰҕƽ·
ŸӰҕՓnbaйԱ www.tmeei.com Ӱ,{Ӱ,Ӱ,Ӱ,Ӱҕۇ,Ӱҕ
7#
l 2020-3-3 00:42:08 | ֻԓ
xdD
ŸӰҕՓnbaйԱ www.tmeei.com Ӱ,{Ӱ,Ӱ,Ӱ,Ӱҕۇ,Ӱҕ
8#
l 2020-3-3 07:10:43 | ֻԓ
x
ŸӰҕՓnbaйԱ www.tmeei.com Ӱ,{Ӱ,Ӱ,Ӱ,Ӱҕۇ,Ӱҕ
9#
l 2020-3-3 09:02:15 | ֻԓ
lNxxXŸӰҕӰֵղص
ŸӰҕՓnbaйԱ www.tmeei.com Ӱ,{Ӱ,Ӱ,Ӱ,Ӱҕۇ,Ӱҕ
10#
l 2020-3-3 09:03:09 | ֻԓ

@|xxŸӰҕһҪԳȥֲ֧סrՈ׌Ҿ
ŸӰҕՓnbaйԱ www.tmeei.com Ӱ,{Ӱ,Ӱ,Ӱ,Ӱҕۇ,Ӱҕ
11#
l 2020-3-3 09:15:18 | ֻԓ
lNxxXŸӰҕӰֵղص
ŸӰҕՓnbaйԱ www.tmeei.com Ӱ,{Ӱ,Ӱ,Ӱ,Ӱҕۇ,Ӱҕ
12#
l 2020-3-3 09:30:42 | ֻԓ

̫I***UŸӰҕ^Ӱۺõ
ŸӰҕՓnbaйԱ www.tmeei.com Ӱ,{Ӱ,Ӱ,Ӱ,Ӱҕۇ,Ӱҕ
13#
l 2020-3-3 10:38:57 | ֻԓ

xğo˽ҪŸӰҕ,Ϳ!
ŸӰҕՓnbaйԱ www.tmeei.com Ӱ,{Ӱ,Ӱ,Ӱ,Ӱҕۇ,Ӱҕ
14#
l 2020-3-3 17:49:26 | ֻԓ
xhֹ֧ŸӰҕ
ŸӰҕՓnbaйԱ www.tmeei.com Ӱ,{Ӱ,Ӱ,Ӱ,Ӱҕۇ,Ӱҕ
15#
l 2020-3-3 19:29:24 | ֻԓ
lNxxXŸӰҕӰֵղص
ŸӰҕՓnbaйԱ www.tmeei.com Ӱ,{Ӱ,Ӱ,Ӱ,Ӱҕۇ,Ӱҕ
16#
l 2020-3-3 20:54:15 | ֻԓ
lNxxXŸӰҕӰֵղص
ŸӰҕՓnbaйԱ www.tmeei.com Ӱ,{Ӱ,Ӱ,Ӱ,Ӱҕۇ,Ӱҕ
17#
l 2020-3-3 22:20:25 | ֻԓ
xx
ŸӰҕՓnbaйԱ www.tmeei.com Ӱ,{Ӱ,Ӱ,Ӱ,Ӱҕۇ,Ӱҕ
18#
l 2020-3-4 07:58:16 | ֻԓ
x֧֘
ŸӰҕՓnbaйԱ www.tmeei.com Ӱ,{Ӱ,Ӱ,Ӱ,Ӱҕۇ,Ӱҕ
19#
l 2020-3-4 13:43:06 | ֻԓ

@|xxŸӰҕһҪԳȥֲ֧סrՈ׌Ҿ
ŸӰҕՓnbaйԱ www.tmeei.com Ӱ,{Ӱ,Ӱ,Ӱ,Ӱҕۇ,Ӱҕ
20#
l 2020-3-4 23:12:11 ֙C | ֻԓ
xx
ŸӰҕՓnbaйԱ www.tmeei.com Ӱ,{Ӱ,Ӱ,Ӱ,Ӱҕۇ,Ӱҕ
12һ
б l
еôc҂ȿݻ؏->

eҎt

nbaйԱ
վṩWόWӑՓʹ,YԴԻ“W_,l͂Փվ,վؓκ؟.
lF֙О,Ոc҂“ϵ.҂̏ľWվτhгְǸ.
ӰҕۇՓѽȫ\

QQ|С|֙C|Archiver|nbaйԱ

GMT+8, 2020-4-8 07:26 , Processed in 0.218859 second(s), 19 queries , Gzip On.

Powered by Discuz! X3.4

© 2001-2017 Comsenz Inc.

ٻ؏ nbaйԱ б